#TITLE:Dark Requiem;
#SUBTITLE:;
#ARTIST:Neojock;
#TITLETRANSLIT:;
#SUBTITLETRANSLIT:;
#ARTISTTRANSLIT:;
#CREDIT:;
#BANNER:Dark Requiem-ban.PNG;
#BACKGROUND:Dark Requiem-bg.PNG;
#LYRICSPATH:;
#CDTITLE:;
#MUSIC:Dark Requiem.mp3;
#OFFSET:0.000;
#SAMPLESTART:59.320;
#SAMPLELENGTH:12.000;
#SELECTABLE:YES;
#BPMS:0.000=115.000,48.000=230.001,112.000=115.000,128.000=230.000,224.000=57.500,232.000=230.001,264.000=270.001,328.000=300.001,392.000=115.001,400.000=340.000,464.000=760.014,596.000=775.014,598.000=790.494,600.000=806.114,603.000=828.134,604.000=837.154,605.000=846.374,606.000=853.994,607.000=862.214,608.000=869.834,609.000=879.054,610.000=896.274,611.000=908.294,612.000=915.114,613.000=927.534,614.000=934.954,615.000=942.574,616.000=951.794,617.000=960.014,618.000=966.834,619.000=976.054,620.000=983.474,621.000=994.094,622.000=999.995;
#STOPS:399.500=4.180
;
#BGCHANGES:;
// cache tags:
#FIRSTBEAT:0.000;
#LASTBEAT:710.000;
#SONGFILENAME:Songs/Music V.I.P ^_^/Dark Requiem/Dark Requiem.sm;
#HASMUSIC:1;
#HASBANNER:1;
#MUSICLENGTH:152.816;
// end cache tags

//---------------dance-single - ----------------
#NOTES:
     dance-single:
     :
     Challenge:
     15:
     1.000,1.000,0.275,0.065,0.595,1085.000,42.000,10.000,274.000,1.000:
2MMM
0MMM
0MMM
0MMM
,
3M2M
MM0M
MM0M
MM0M
,
M23M
M0MM
M0MM
M0MM
,
M3M2
MMM0
MMM0
MMM0
,
11M3
0000
M010
0000
00M0
0100
M000
0010
000M
0000
M100
0000
00M0
0000
0M10
0000
,
M001
0000
0100
0010
010M
0000
0000
0000
M0M0
0000
0100
0000
000M
0000
0010
0000
M100
0000
0010
0000
010M
0000
1000
0000
001M
0100
0010
0000
0100
0010
0100
0000
,
1001
0000
0010
0000
M000
0100
000M
0010
M000
0000
0M01
0000
00M0
0000
M100
0000
,
0M10
0000
0001
0010
M001
0000
0000
0000
000M
0000
0100
0000
000M
0000
0010
0000
100M
0000
0100
0000
10M0
0000
0100
0000
0010
0001
0010
0000
M001
0010
0001
0000
,
1000
0100
10M0
0100
100M
0000
0M10
0000
M001
0100
00M1
0100
M000
0010
000M
0100
,
M001
0000
0010
0000
M001
0000
0010
0000
0100
0000
0000
0000
10MM
0000
0100
0000
0010
0000
0100
0000
M001
0000
0010
0000
1000
0100
1000
0000
0M10
0001
0010
0000
,
1000
0100
10MM
0100
000M
0010
M000
0001
M000
0100
0010
0100
100M
0100
0010
0000
,
0M01
0000
1000
0000
00M1
0000
1000
0000
0M01
0000
1000
0000
00M1
0000
1000
0000
001M
0000
0100
0000
M010
0000
0100
0000
001M
0100
0010
0100
M010
0100
0010
0100
,
001M
0100
0010
0000
1000
0100
1000
0000
,
0001
0010
0001
0100
0001
0010
0100
0000
,
1000
0100
0010
0000
0100
0010
0100
0000
,
0100
0000
0010
0001
0010
0000
0100
0000
0010
0001
0010
0000
1000
0100
1000
0000
,
0010
0001
0100
0010
0100
0010
0100
0000
,
0010
0001
0100
0000
0010
0100
1000
0000
,
0010
0100
0001
0100
0010
0100
1000
0000
,
0010
0000
0100
0001
0100
0000
0010
0000
1000
0100
1000
0000
0010
0100
0010
0000
,
1000
0100
1000
0000
0010
0001
0100
0001
,
0100
0010
0100
0000
1000
0100
1000
0000
,
0010
0000
0001
0000
0100
0010
0100
1000
,
0010
0000
0001
0010
0001
0000
0100
0000
1000
0100
1000
0000
0010
0001
0010
0000
,
0100
0010
0100
0000
1000
0100
1000
0100
,
0010
0000
0001
0100
0010
0100
1000
0100
,
0011
0001
0011
0010
0011
0001
0011
0010
,
0011
0000
1000
0100
1000
0000
0010
0000
0100
0000
0001
0000
0100
0010
0100
0010
,
0100
0010
0100
0010
1000
0100
1000
0100
0010
0001
0010
0001
0100
0001
0100
0001
,
0010
0100
0010
0100
0001
0100
0001
0100
0010
0100
0010
0100
1000
0100
1000
0100
,
0010
0100
0001
1000
0100
0010
0001
0100
0010
1000
0100
0010
0001
0010
0001
0010
,
1100
0000
1000
0000
1100
0000
0100
0000
1100
0000
1000
0000
1100
0000
0100
0000
0010
0000
0001
0000
0100
0000
0010
0000
1000
0000
0100
0000
0010
0100
0010
0100
,
0010
0100
0001
0100
0010
0100
1000
0010
,
0100
0001
0100
0010
1000
0100
0010
0100
,
0001
0010
0100
1000
0010
0100
0001
0010
,
0100
0010
0100
1000
0010
0100
0001
0100
,
0010
0100
1000
0010
0100
0001
0010
0100
,
1000
0100
0010
0100
0001
0100
0010
0100
,
1000
0100
0010
0100
1000
0001
0010
0100
,
0010
0000
1000
0000
0010
0000
0100
0000
0010
0100
0010
0000
0100
0000
1000
0000
,
0100
0010
0101
0000
0010
0100
1010
0000
,
0100
0010
0101
0010
0100
1000
0110
0000
,
0001
0010
0101
0000
0100
1000
0101
0000
,
0010
0000
0100
0010
0100
0000
1000
0000
0010
0000
0100
0010
0100
0000
1000
0000
,
1000
0100
0010
0100
0001
0100
0010
0100
,
1010
0100
0001
0100
0010
0001
0100
0010
,
1100
0010
0100
0001
0010
0100
0001
0100
,
0011
0000
1000
0000
0100
0000
1000
0000
0010
0000
0010
0001
0010
0000
0100
0000
,
0011
0100
0010
0100
1000
0100
0010
0100
,
0011
0100
1000
0100
1000
0100
0010
0100
,
1001
0010
0100
0001
0100
0010
0100
1000
,
0101
0010
0100
0010
0001
0100
0010
0100
,
1010
0100
0010
0100
0010
1000
0100
1000
,
0011
0100
0010
0100
1000
0010
0100
0010
,
0100
0001
0100
0000
0010
1000
0010
0000
0100
0010
0100
0000
0001
1000
0001
0000
,
0100
0000
0001
0010
0001
0000
0100
0000
0010
0000
1000
0000
0010
0100
0010
0100
,
0020
0000
0230
0000
,
0000
0000
0000
0000
0000
0000
0000
0000
0000
0000
0000
0000
0000
0000
0000
0000
0000
0000
0000
0000
0000
0000
0000
0000
0000
0000
0000
0000
0000
0000
0000
0000
0301
0000
0010
0000
0001
0000
0010
0000
0001
0000
0010
0000
0001
0000
0010
0000
1000
0000
0100
0010
0100
0000
0001
0000
0100
0000
0010
0000
1000
0100
1000
0100
,
1000
0000
0011
0000
0000
0101
0000
1010
,
0000
0110
0000
0101
,
0010
0000
0100
0010
0100
0000
0000
0000
0000
0000
0011
0000
0000
0000
0101
0000
,
0010
0000
0100
0000
0010
0000
0100
0000
1000
0100
1000
0000
0100
0001
0100
0000
,
0011
0000
1100
0000
0000
0101
0000
0110
,
0000
1100
0000
0101
,
1000
0100
1000
0000
0001
0010
0001
0000
0100
0010
0100
0000
1000
0000
0100
0000
,
0010
0000
0001
0100
0001
0000
0010
0000
0100
0000
1000
0000
0010
0100
0010
0100
,
0010
0000
0100
0000
0010
0000
0000
0000
1000
0100
1000
0000
0010
0000
0000
0000
,
0100
0000
0001
0000
0100
0000
0000
0000
0010
0100
0010
0000
1000
0000
0000
0000
,
0010
0000
0100
0000
0001
0000
0000
0000
1000
0100
1000
0000
0010
0000
0000
0000
,
0100
0000
0001
0000
0010
0000
0000
0000
0100
0001
0100
0000
1000
0100
1000
0000
,
0010
0000
0001
0000
0100
0000
0000
0000
0010
0001
0010
0000
0100
0000
0000
0000
,
1000
0000
0100
0000
1000
0000
0000
0000
0010
0001
0010
0000
0100
0000
0000
0000
,
1000
0000
0100
0000
0010
0000
0000
0000
0100
0010
0100
0000
0001
0000
0000
0000
,
1000
0000
0010
0000
0100
0000
0000
0000
0001
0010
0001
0000
1000
0100
1000
0000
,
0010
0000
0100
0000
0001
0000
0000
0000
1000
0100
1000
0000
0010
0000
0000
0000
,
0001
0000
0010
0000
0100
0000
0000
0000
0001
0010
0001
0000
1000
0000
0000
0000
,
0010
0000
0100
0000
1000
0000
0000
0000
0010
0100
0010
0000
0001
0000
0000
0000
,
1000
0000
0100
0000
0010
0000
0000
0000
1000
0100
1000
0000
0001
0010
0001
0000
,
1000
0000
0100
0000
1000
0000
0000
0000
0001
0010
0001
0000
0100
0000
0000
0000
,
0010
0000
0100
0000
0001
0000
0000
0000
1000
0100
1000
0000
0010
0000
0000
0000
,
0001
0010
0001
0000
1000
0100
1000
0000
0010
0100
0010
0000
0100
0010
0100
0000
,
0001
0000
1000
0100
1000
0000
0010
0000
0100
0000
0010
0000
0100
1000
0100
1000
,
0100
0010
0100
0010
1000
0100
1000
0100
,
0010
0001
0010
0001
0100
0001
0100
0010
,
1000
0100
1000
0100
1000
0100
1000
0000
,
0001
0000
0010
0000
0001
0000
0010
0000
0001
0100
0001
0000
0011
0000
0000
0000
,
1000
0100
1000
0010
0100
0001
0010
0100
,
1000
0100
1000
0010
0100
0001
0010
0100
,
1000
0100
1000
0100
1000
0100
1000
0000
,
0010
0000
0100
0000
1000
0000
0010
0000
0100
0010
0100
0000
0011
0000
0000
0000
,
1000
0010
0100
0001
0100
0010
0100
1000
,
0100
0000
0010
0000
0100
0000
1000
0000
0010
0001
0010
0000
0100
0000
0000
0000
,
0001
0100
0010
0100
1000
0100
0010
0001
,
0100
0000
0010
0000
0100
0000
1000
0000
0100
0010
0100
0000
0001
0000
0000
0000
,
1000
0100
0010
0100
0010
0001
1000
0100
,
0010
0100
0010
0001
1000
0100
0010
0001
,
0100
0010
0100
0010
0100
0010
1000
0100
,
0010
0000
0001
0000
0010
0000
0100
0000
1000
0000
0100
0000
0010
0100
0010
0100
,
0010
0001
1000
0100
0010
0100
0010
0200
0000
0000
0000
0000
0000
0000
0000
0300
,
0001
0000
0000
0000
0010
0000
0000
0000
0100
0000
0000
0000
0010
0000
0000
0000
0100
0000
0000
0000
1000
0000
0000
0000
0100
0000
0000
0000
0010
0000
0000
0000
0100
0000
0000
0000
0020
0000
0000
0000
0000
0000
0000
0000
0000
0000
0000
0000
0000
0000
0000
0000
0000
0000
0000
0000
0000
0030
0000
0000
0000
0000
0000
0000
,
1000
0100
0010
0100
1000
0100
0010
0100
,
1000
0100
0010
0000
0001
0010
0100
0000
,
0001
0010
0001
0100
0001
0010
0001
0100
,
1000
0100
1000
0100
1000
0100
1000
0000
,
0001
0100
0001
0000
1000
0100
1000
0000
,
0100
0001
0010
0100
1000
0100
0010
0100
,
0001
0010
0001
0010
1000
0100
1000
0100
,
0010
0100
0010
0100
0001
0100
0001
0100
,
0001
0100
0010
1000
,
0010
0000
0000
0000
0100
0000
0000
0000
0010
0000
0000
0000
0001
0100
0001
0000
,
0010
0100
0010
0000
1000
0100
1000
0000
,
0010
0000
0001
0000
0010
0000
0000
0000
0100
0010
0100
0000
0000
0000
0010
0000
,
0001
1000
0001
1000
0100
0010
0001
0010
,
0100
1000
0100
1000
0010
1000
0100
0010
,
0100
0001
0100
0010
0100
1000
0100
0010
,
0100
0000
0001
0000
0100
0000
0010
0000
1000
0001
1000
0001
1000
0000
0000
0000
,
1000
0001
1000
0001
,
1000
0001
1000
0001
,
0100
0010
0100
0010
,
0100
0010
0100
0010
,
1000
0100
1000
0100
,
0010
0001
0010
0001
,
1000
0001
1000
0001
,
1000
0100
0010
0001
,
1000
0010
0100
0001
,
0100
0010
0100
0010
,
1000
0100
1000
0100
,
0010
0001
0010
0001
,
1000
0100
1000
0100
,
0010
0001
0010
0001
,
1000
0100
0010
0001
,
0010
0100
1000
0100
,
0010
0001
0010
0100
,
0010
0100
0010
0001
,
0010
0100
1000
0010
,
0100
1000
0100
1000
,
0010
0001
0100
0001
,
0100
0010
0100
0010
,
1000
0100
1000
0010
,
0001
0100
0010
0100
,
1000
0100
0010
0001
,
0100
0010
0100
1000
,
0100
1000
0100
0010
,
0001
0010
0001
0100
,
0001
0100
0001
1000
,
0010
0100
0010
0100
,
0001
0010
0001
0010
,
1000
0100
1000
0010
,
2002
0000
0000
0000
,
0000
0000
0000
0000
,
0000
0000
0000
0000
,
0000
0000
0000
0000
,
0000
0000
0000
0000
,
0000
0000
0000
0000
,
0000
0000
0000
0000
,
0000
0000
0MM0
0MM0
,
0MM0
0MM0
0MM0
0MM0
,
0MM0
0MM0
0MM0
0MM0
,
0MM0
0MM0
0MM0
0MM0
,
0MM0
0MM0
0MM0
0MM0
,
0MM0
0MM0
0MM0
0MM0
,
0MM0
0MM0
0MM0
0MM0
,
0MM0
0MM0
0MM0
0MM0
,
0MM0
0MM0
0MM0
0MM0
,
0MM0
0MM0
0MM0
0MM0
,
0MM0
0MM0
0MM0
0MM0
,
0MM0
0MM0
0MM0
0MM0
,
0MM0
0MM0
0MM0
0MM0
,
0MM0
0MM0
0MM0
0MM0
,
0MM0
0MM0
0MM0
0MM0
,
0MM0
3MM3
0MM0
0MM0
,
0MM0
0MM0
0MM0
0MM0
,
MMMM
M00M
M00M
M00M
,
MMMM
0000
0000
0000
,
0000
M000
M000
M000
,
MMMM
0000
MMMM
M00M
,
M00M
MMMM
0000
M000
,
M000
M000
MMMM
0000
;
